Вход
Интересное
Скачать док. фильм "Заявление Стрелкова 04.07.2014 с пометкой СРОЧНО"

Заявление Стрелкова 04.07.2014 с пометкой СРОЧНО

Голосов: 4
Постер Заявление Стрелкова 04.07.2014 с пометкой СРОЧНО
Стрелков-русский говорит о том ,что у них осталась неделя до конца и если Путин не пошевелится то они погибнут как герои
General
Complete name
: F:\Downloaded\Strelkov\Заявление Стрелкова 04.07.2014 с пометкой СРОЧНО.mp4
Format
: MPEG-4
Format profile
: Base Media
Codec ID
: isom
File size
: 30.5 MiB
Duration
: 5mn 33s
Overall bit rate
: 767 Kbps
Writing application
: Lavf54.63.104

Video
ID
: 1
Format
: AVC
Format/Info
: Advanced Video Codec
Format profile
: Main@L3.0
Format settings, CABAC
: Yes
Format settings, ReFrames
: 3 frames
Codec ID
: avc1
Codec ID/Info
: Advanced Video Coding
Duration
: 5mn 33s
Bit rate
: 633 Kbps
Width
: 720 pixels
Height
: 480 pixels
Display aspect ratio
: 3:2
Frame rate mode
: Constant
Frame rate
: 30.000 fps
Standard
: NTSC
Color space
: YUV
Chroma subsampling
: 4:2:0
Bit depth
: 8 bits
Scan type
: Progressive
Bits/(Pixel*Frame)
: 0.061
Stream size
: 25.2 MiB (83%)

Audio
ID
: 2
Format
: AAC
Format/Info
: Advanced Audio Codec
Format profile
: LC
Codec ID
: 40
Duration
: 5mn 33s
Bit rate mode
: Constant
Bit rate
: 126 Kbps
Channel(s)
: 2 channels
Channel positions
: Front: L R
Sampling rate
: 44.1 KHz
Compression mode
: Lossy
Stream size
: 5.00 MiB (16%)


Просмотров1529
Взят95
Скачан30 раз
Файлов4 файлов
Раздалaasom65
Размер192.35 MB
Добавлен2014-07-04 16:12:51

Список комментариев
Дополнительные тэги: Сатанизм, Священник, Симонов, СМИ, Соломина, Спорт, Староверы, США, Тарасов, Террор, Трансгенный, Троцкизм, ТЭС, Учеба, Фараон, Филиппенко, Франклин, Фролов, Хазар, Холокост, Цивилизация

|