Вход
Интересное
Скачать документальное кино "Евгений Фёдоров 6 августа 2014"

Евгений Фёдоров 6 августа 2014

Голосов: 2
Постер Евгений Фёдоров 6 августа 2014
Беседа с депутатом Государственной Думы Евгением Фёдоровым 6 августа 2014.
Разговор об американской пропаганде российских СМИ, войне в интернете, защитниках американской колониальной империи, непослушном Путине, помощи Газпрома украинской хунте, санкциях против России, вопросе ввода российских войск на Украину, слабости американской империи, организации протестов и промывании мозгов.
Скачать, слушать, читать: http://poznavatelnoe.tv/fedorov_2014-...
Депутат Евгений Фёдоров: http://eafedorov.ru
Народное освободительное движение: http://засвободу.рф
Познавательное ТВ - образовательное телевидение для тех, кто хочет понять тайны политики и глобального управления, разобраться с секретами денег и мировых банкиров, выяснить, кто стоит за возникновением государств и падением империй. Смотрите на нашем канале и сайте http://poznavatelnoe.tv

General
Complete name
: F:\Евгений Федоров 6 августа 2014 (Познавательное ТВ, Евгений Фёдоров).mp4
Format
: MPEG-4
Format profile
: Base Media
Codec ID
: isom
File size
: 305 MiB
Duration
: 1h 37mn
Overall bit rate
: 439 Kbps
Writing application
: Lavf54.63.104

Video
ID
: 1
Format
: AVC
Format/Info
: Advanced Video Codec
Format profile
: Main@L3.0
Format settings, CABAC
: Yes
Format settings, ReFrames
: 3 frames
Codec ID
: avc1
Codec ID/Info
: Advanced Video Coding
Duration
: 1h 37mn
Bit rate
: 307 Kbps
Width
: 640 pixels
Height
: 360 pixels
Display aspect ratio
: 16:9
Frame rate mode
: Constant
Frame rate
: 25.000 fps
Color space
: YUV
Chroma subsampling
: 4:2:0
Bit depth
: 8 bits
Scan type
: Progressive
Bits/(Pixel*Frame)
: 0.053
Stream size
: 213 MiB (70%)

Audio
ID
: 2
Format
: AAC
Format/Info
: Advanced Audio Codec
Format profile
: LC
Codec ID
: 40
Duration
: 1h 37mn
Bit rate mode
: Constant
Bit rate
: 126 Kbps
Channel(s)
: 2 channels
Channel positions
: Front: L R
Sampling rate
: 44.1 KHz
Compression mode
: Lossy
Stream size
: 87.2 MiB (29%)


Просмотров1871
Взят88
Скачан13 раз
Раздалaasom65
Размер305.14 MB
Добавлен2014-08-09 17:04:28

Список комментариев
Дополнительные тэги: Сыроедение, Тараторин, Тесла, Трансерфинг, Тунгусский, Уинстон, Усатов, Фастфуд, Философия, Франция, ФРС, Хакер, Християнство, Цифровой, Чеченя, Шекспир, Шукшин, Эгрегор, Экуменизм, Этруск, Ющенко

|