Вход
Интересное
Скачать документальное кино "Евгений Федоров 6 мая 2014"

Евгений Федоров 6 мая 2014

Голосов: 4
Постер Евгений Федоров 6 мая 2014
РУССКИЕ прислушайтесь к этому человеку ему наверное не долго осталось. Он говорит если предупреждён значит вооружён. И говорит что надо поддержать Путина, иначе вам светит резня как на Украине уже в следующем году.Информация взята с сайта http://poznavatelnoe.tv/ и http://www.youtube.com/ программа для скачивания прилагается.
General
Complete name
: H:\downloaded\Fedorov\Евгений Федоров 6 мая 2014.mp4
Format
: MPEG-4
Format profile
: Base Media / Version 2
Codec ID
: mp42
File size
: 81.8 MiB
Duration
: 32mn 24s
Overall bit rate
: 353 Kbps
Encoded date
: UTC 2014-05-06 11:28:03
Tagged date
: UTC 2014-05-06 11:28:03
gsst
: 0
gstd
: 1944531
gssd
: B4D783FC6HH1400071074151657
gshh
: r3---sn-8vap5-3c2e.googlevideo.com

Video
ID
: 1
Format
: AVC
Format/Info
: Advanced Video Codec
Format profile
: Baseline@L3.0
Format settings, CABAC
: No
Format settings, ReFrames
: 1 frame
Codec ID
: avc1
Codec ID/Info
: Advanced Video Coding
Duration
: 32mn 24s
Bit rate mode
: Variable
Bit rate
: 254 Kbps
Maximum bit rate
: 478 Kbps
Width
: 640 pixels
Height
: 360 pixels
Display aspect ratio
: 16:9
Frame rate mode
: Constant
Frame rate
: 29.970 fps
Color space
: YUV
Chroma subsampling
: 4:2:0
Bit depth
: 8 bits
Scan type
: Progressive
Bits/(Pixel*Frame)
: 0.037
Stream size
: 59.0 MiB (72%)
Tagged date
: UTC 2014-05-06 11:28:14

Audio
ID
: 2
Format
: AAC
Format/Info
: Advanced Audio Codec
Format profile
: LC
Codec ID
: 40
Duration
: 32mn 24s
Bit rate mode
: Variable
Bit rate
: 96.0 Kbps
Maximum bit rate
: 105 Kbps
Channel(s)
: 2 channels
Channel positions
: Front: L R
Sampling rate
: 44.1 KHz
Compression mode
: Lossy
Stream size
: 22.3 MiB (27%)
Title
: IsoMedia File Produced by Google, 5-11-2011
Encoded date
: UTC 2014-05-06 11:28:09
Tagged date
: UTC 2014-05-06 11:28:14


Просмотров2401
Взят73
Скачан23 раз
Файлов3 файлов
Раздалaasom65
Размер832.22 MB
Добавлен2014-05-14 17:24:10

Список комментариев
Дополнительные тэги: Педагогика, Петренко, Письменность, Поляков, Предиктор, Пронин, Пушкин, Религия, Рождаемость, РТР, Савельев, Свастика, Сердюков, Славяни, Соколов, Социализм, Сталинград, Стрелковый, Тамплиер, Тензинг, Тихонов

|