Вход
Интересное
Скачать документальное кино "Евгений Фёдоров 26 июня 2014"

Евгений Фёдоров 26 июня 2014

Голосов: 3
Постер Евгений Фёдоров 26 июня 2014
Кто хочет вступить в ряды национально-освободительного движения и кто считает, что живёт в окупированой стране, зайдите сюда http://rusnod.ru/
Информация взята отсюда http://poznavatelnoe.tv/
General
Complete name
: F:\Downloaded\Евгений Фёдоров 26 июня 2014 М.mp4
Format
: MPEG-4
Format profile
: Base Media / Version 2
Codec ID
: mp42
File size
: 258 MiB
Duration
: 1h 31mn
Overall bit rate mode
: Variable
Overall bit rate
: 394 Kbps
Movie name
: Евгений Фёдоров 26 июня 2014
Composer
: Artem
Encoded date
: UTC 2014-06-27 07:36:36
Tagged date
: UTC 2014-06-28 07:38:45
Writing application
: Sorenson Squeeze
Comment
: Encoded by
Video
ID
: 2
Format
: AVC
Format/Info
: Advanced Video Codec
Format profile
: Baseline@L1.3
Format settings, CABAC
: No
Format settings, ReFrames
: 3 frames
Codec ID
: avc1
Codec ID/Info
: Advanced Video Coding
Duration
: 1h 31mn
Bit rate
: 300 Kbps
Width
: 320 pixels
Height
: 180 pixels
Display aspect ratio
: 16:9
Frame rate mode
: Constant
Frame rate
: 25.000 fps
Standard
: PAL
Color space
: YUV
Chroma subsampling
: 4:2:0
Bit depth
: 8 bits
Scan type
: Progressive
Bits/(Pixel*Frame)
: 0.208
Stream size
: 197 MiB (76%)
Encoded date
: UTC 2014-06-27 07:36:36
Tagged date
: UTC 2014-06-27 07:36:36

Audio
ID
: 1
Format
: AAC
Format/Info
: Advanced Audio Codec
Format profile
: LC
Codec ID
: 40
Duration
: 1h 31mn
Bit rate mode
: Variable
Bit rate
: 64.0 Kbps
Maximum bit rate
: 4 219 Mbps
Channel(s)
: 1 channel
Channel positions
: Front: C
Sampling rate
: 44.1 KHz
Compression mode
: Lossy
Stream size
: 42.0 MiB (16%)
Encoded date
: UTC 2014-06-27 07:36:36
Tagged date
: UTC 2014-06-27 07:36:36

Other #1
ID
: 3
Type
: Scene description
Format
: System Core
Codec ID
: 2
Duration
: 1h 31mn
Encoded date
: UTC 2014-06-27 07:36:49
Tagged date
: UTC 2014-06-27 07:36:49

Other #2
ID
: 4
Type
: Object description
Format
: System
Codec ID
: 1
Duration
: 1h 31mn
Encoded date
: UTC 2014-06-27 07:36:49
Tagged date
: UTC 2014-06-27 07:36:49

Other #3
ID
: 5
Type
: Hint
Format
: RTP
Codec ID
: rtp
Duration
: 1h 31mn
Language
: English
Encoded date
: UTC 2014-06-28 07:36:51
Tagged date
: UTC 2014-06-28 07:36:54
Source duration
: 5501899
Source frame count
: 32727
Source stream size
: 8629568
Stream size
: 8585984
Bit rate mode
: VBR

Other #4
ID
: 6
Type
: Hint
Format
: RTP
Codec ID
: rtp
Duration
: 1h 31mn
Language
: English
Encoded date
: UTC 2014-06-28 07:36:54
Tagged date
: UTC 2014-06-28 07:36:59


Просмотров1410
Взят46
Скачан7 раз
Раздалaasom65
Размер258.50 MB
Добавлен2014-06-28 21:53:48

Список комментариев
Дополнительные тэги: Спорт, Староверы, США, Тарасов, Террор, Трансгенный, Троцкизм, ТЭС, Учеба, Фараон, Филиппенко, Франклин, Фролов, Хазар, Холокост, Цивилизация, Чернобыль, Шевченко, Шукадева, Эвтаназия, Экстрасенс

|