Вход
Интересное
Скачать исторический документальный фильм "Последний бой Николая Кузнецова"

Последний бой Николая Кузнецова

Смотреть онлайн Последний бой Николая Кузнецова
Голосов: 0
Постер Последний бой Николая Кузнецова

Последний бой Николая Кузнецова

Перевод: Не требуется, cубтитры: отсутствуют
Формат: SATRip, AVI, XviD, AC3
Страна: Россия
Режиссер: Игорь Холодков
Жанр: документальный, познавательный
Продолжительность: 00:45:37
Год выпуска: 2015
Размер: 567 МБ

Описание: В фильме "Последний бой Николая Кузнецова" рассказывается не только о героической судьбе советского разведчика, самых ярких страницах его биографии, но и о том, каким он представляется сегодня жителям России и Украины. На основе документов и показаний очевидцев, мнений историков, работников спецслужб, людей, причастных к увековечиванию памяти героя, создана достоверная, увлекательная и актуальная картина о человеке-легенде и о том, что такое истинный патриотизм.

Видео: 720x400 (1.80:1), 25 fps, XviD build 50 ~1600 kbps avg, 0.25 bit/pixel
Аудио: 48 kHz, AC3 Dolby Digital, 2/0 (L,R) ch, ~192 kbps
General
Complete name
: C:\Users\User\Desktop\Последний бой Николая Кузнецова.2015.SATRip.Generalfilm.avi
Format
: AVI
Format/Info
: Audio Video Interleave
File size
: 568 MiB
Duration
: 45mn 37s
Overall bit rate
: 1 740 Kbps
Writing application
: VirtualDubMod 1.5.10.3 | www.virtualdub-fr.org || (build 2550/release)
Writing library
: VirtualDubMod build 2550/release

Video
ID
: 0
Format
: MPEG-4 Visual
Format profile
: Advanced Simple@L5
Format settings, BVOP
: 1
Format settings, QPel
: No
Format settings, GMC
: No warppoints
Format settings, Matrix
: Custom
Codec ID
: XVID
Codec ID/Hint
: XviD
Duration
: 45mn 37s
Bit rate
: 1 538 Kbps
Width
: 720 pixels
Height
: 400 pixels
Display aspect ratio
: 16:9
Frame rate
: 25.000 fps
Color space
: YUV
Chroma subsampling
: 4:2:0
Bit depth
: 8 bits
Scan type
: Progressive
Compression mode
: Lossy
Bits/(Pixel*Frame)
: 0.214
Stream size
: 502 MiB (88%)
Writing library
: XviD 73

Audio
ID
: 1
Format
: AC-3
Format/Info
: Audio Coding 3
Mode extension
: CM (complete main)
Format settings, Endianness
: Big
Codec ID
: 2000
Duration
: 45mn 37s
Bit rate mode
: Constant
Bit rate
: 192 Kbps
Channel(s)
: 2 channels
Channel positions
: Front: L R
Sampling rate
: 48.0 KHz
Bit depth
: 16 bits
Compression mode
: Lossy
Stream size
: 62.7 MiB (11%)
Alignment
: Split accross interleaves
Interleave, duration
: 40 ms (1.00 video frame)
Interleave, preload duration
: 500 ms

Скриншоты "Последний бой Николая Кузнецова":

Скриншот 1 Последний бой Николая КузнецоваСкриншот 2 Последний бой Николая КузнецоваСкриншот 3 Последний бой Николая КузнецоваСкриншот 4 Последний бой Николая Кузнецова
Просмотров6173
Взят891
Скачан22 раз
РаздалЗапад7
Размер567.92 MB
Добавлен2015-04-09 12:58:33

Список комментариев
Дополнительные тэги: Емелин, Жарников, Зайцев, Зиновьев, Зюганов, Илюхин, Ирак, Иудаизм, Кадочников, Караулов, Кеннеди, Клименко, Коллайдер, Комиссия, Компьютер, Конкуренция, Консультант, Концепция, Корпорация, Кощун, Кремль

|