Вход
Интересное

Лучшие документальные фильмы

Скачать документальное кино "Военная тайна 16 08 2014"

Военная тайна 16 08 2014

Голосов: 0

Постер Военная тайна 16 08 2014
Как представители госдепа становятся героями анекдотов?
Всё о неудачных засекреченных операциях морских котиков.
Какой будет армия будущего?
Загадки славянской цивилизации.
Хитрый лис Михаил Кутузов.
General
Complete name
: F:\Военная тайна 16 08 2014.avi
Format
: AVI
Format/Info
: Audio Video Interleave
File size
: 731 MiB
Duration
: 1h 32mn
Overall bit rate
: 1 105 Kbps

Video
ID
: 0
Format
: MPEG-4 Visual
Format profile
: Advanced Simple@L5
Format settings, BVOP
: 2
Format settings, QPel
: No
Format settings, GMC
: No warppoints
Format settings, Matrix
: Default (H.263)
Codec ID
: XVID
Codec ID/Hint
: XviD
Duration
: 1h 32mn
Bit rate
: 871 Kbps
Width
: 480 pixels
Height
: 360 pixels
Display aspect ratio
: 4:3
Frame rate
: 30.000 fps
Color space
: YUV
Chroma subsampling
: 4:2:0
Bit depth
: 8 bits
Scan type
: Progressive
Compression mode
: Lossy
Bits/(Pixel*Frame)
: 0.168
Stream size
: 576 MiB (79%)
Writing library
: XviD 1.2.1 (UTC 2008-12-04)

Audio
ID
: 1
Format
: MPEG Audio
Format version
: Version 1
Format profile
: Layer 3
Mode
: Joint stereo
Mode extension
: MS Stereo
Codec ID
: 55
Codec ID/Hint
: MP3
Duration
: 1h 32mn
Bit rate mode
: Constant
Bit rate
: 128 Kbps
Channel(s)
: 2 channels
Sampling rate
: 44.1 KHz
Compression mode
: Lossy
Delay relative to video
: 24ms
Stream size
: 84.6 MiB (12%)
Alignment
: Split accross interleaves
Interleave, duration
: 26 ms (0.78 video frame)
Interleave, preload duration
: 24 ms


Советуем: Семинары Санкт-Петербургского отделения КПЕ, Дмитрий Славолюбов. Обзор событий в России и в мире с позиций КОБ [2009-2011, КОБ, KOB, ДОТУ, DOTU, КПЕ, KPE, Концепция Общественной Безопасности, mp3] (Еженедельное обновление от 6 апреля 2011г.)
Просмотров679
Взят111
Скачан22 раз
Раздалaasom65
Размер730.51 MB
Добавлен2014-08-17 15:58:59

Список комментариев

Скачать фильмы о дикой природе

|

Скачать торрент фильмы о космосе

|

Исторические документальные фильмы скачать

|

Документальные фильмы о войне

Военная тайна 16 08 2014. Фильмы про современные информационные войны. Инфо война против России технологии и методы | Военная тайна 16 08 2014. Как представители госдепа становятся героями анекдотов?Всё о неудачных. Трекер документальных фильмов, скачать бесплатно, без регистрации через торрент. Документальные фильмы о войне, про космос, о дикой природе, исторические. Док. фильмы которые заставляют задуматься и изменить свое мировоззрение.