Вход
Интересное

Лучшие документальные фильмы

Скачать документальное кино "Военная тайна 09 08 2014"

Военная тайна 09 08 2014

Голосов: 0

Постер Военная тайна 09 08 2014
Как американцы свергают режимы под лозунгом борьбы за демократию и почему они безнаказанно грабят целые страны?
Русофобия вместо национальной идеи или зачем западного телезрителя приучают ненавидеть нашу страну?
Дураки, дороги и дураки на дорогах.Как с этим бороться?
Смерть воимя любви.Марк Антоний и Клеопатра.
Кто помогал сбежать Гитлеру в аргентину и там возрадить третий рейх.
История одного предательства.Как уникальную отечественную разработку на металлолом порезали.
General
Complete name
: F:\Военная тайна 09 08 2014.avi
Format
: AVI
Format/Info
: Audio Video Interleave
File size
: 778 MiB
Duration
: 1h 36mn
Overall bit rate
: 1 130 Kbps

Video
ID
: 0
Format
: MPEG-4 Visual
Format profile
: Advanced Simple@L5
Format settings, BVOP
: 2
Format settings, QPel
: No
Format settings, GMC
: No warppoints
Format settings, Matrix
: Default (H.263)
Codec ID
: XVID
Codec ID/Hint
: XviD
Duration
: 1h 36mn
Bit rate
: 895 Kbps
Width
: 480 pixels
Height
: 360 pixels
Display aspect ratio
: 4:3
Frame rate
: 30.000 fps
Color space
: YUV
Chroma subsampling
: 4:2:0
Bit depth
: 8 bits
Scan type
: Progressive
Compression mode
: Lossy
Bits/(Pixel*Frame)
: 0.173
Stream size
: 617 MiB (79%)
Writing library
: XviD 1.2.1 (UTC 2008-12-04)

Audio
ID
: 1
Format
: MPEG Audio
Format version
: Version 1
Format profile
: Layer 3
Mode
: Joint stereo
Mode extension
: MS Stereo
Codec ID
: 55
Codec ID/Hint
: MP3
Duration
: 1h 36mn
Bit rate mode
: Constant
Bit rate
: 128 Kbps
Channel(s)
: 2 channels
Sampling rate
: 44.1 KHz
Compression mode
: Lossy
Delay relative to video
: 5ms
Stream size
: 88.2 MiB (11%)
Alignment
: Split accross interleaves
Interleave, duration
: 26 ms (0.78 video frame)
Interleave, preload duration
: 4 ms
Writing library
: LAME3.98


Советуем: Семинары Санкт-Петербургского отделения КПЕ, Дмитрий Славолюбов. Обзор событий в России и в мире с позиций КОБ [2009-2011, КОБ, KOB, ДОТУ, DOTU, КПЕ, KPE, Концепция Общественной Безопасности, mp3] (Еженедельное обновление от 6 апреля 2011г.)
Просмотров832
Взят169
Скачан29 раз
Раздалaasom65
Размер778.34 MB
Добавлен2014-08-10 14:47:57

Список комментариев

Скачать фильмы о дикой природе

|

Скачать торрент фильмы о космосе

|

Исторические документальные фильмы скачать

|

Документальные фильмы о войне

Военная тайна 09 08 2014. Фильмы про современные информационные войны. Инфо война против России технологии и методы | Военная тайна 09 08 2014. Как американцы свергают режимы под лозунгом борьбы за демократию и почему. Трекер документальных фильмов, скачать бесплатно, без регистрации через торрент. Документальные фильмы о войне, про космос, о дикой природе, исторические. Док. фильмы которые заставляют задуматься и изменить свое мировоззрение.