Вход
Интересное

Лучшие документальные фильмы

Скачать документальный фильм "Трехлебов А.В. Нынешнее состояние дел"

Трехлебов А.В. Нынешнее состояние дел

Голосов: -1

Постер Трехлебов А.В. Нынешнее состояние дел
Здесь Глоба И.А. подробно рассказывает о том, что надо не останавливаться и не быть ленивым. Интересно для любителей Трехлебова. Информация взята отсюда http://koscuni.ru/
General
Complete name
: F:\Downloaded\Globa\Трехлебов А.В. Нынешнее состояние дел по незаконному уголовному преследованию А В Трехлебова.mp4
Format
: MPEG-4
Format profile
: Base Media
Codec ID
: isom
File size
: 175 MiB
Duration
: 2h 7mn
Overall bit rate
: 191 Kbps
Writing application
: Lavf54.63.104

Video
ID
: 1
Format
: AVC
Format/Info
: Advanced Video Codec
Format profile
: Main@L1.3
Format settings, CABAC
: Yes
Format settings, ReFrames
: 3 frames
Codec ID
: avc1
Codec ID/Info
: Advanced Video Coding
Duration
: 2h 7mn
Bit rate
: 60.5 Kbps
Width
: 320 pixels
Height
: 240 pixels
Display aspect ratio
: 4:3
Frame rate mode
: Constant
Frame rate
: 18.000 fps
Color space
: YUV
Chroma subsampling
: 4:2:0
Bit depth
: 8 bits
Scan type
: Progressive
Bits/(Pixel*Frame)
: 0.044
Stream size
: 55.3 MiB (32%)

Audio
ID
: 2
Format
: AAC
Format/Info
: Advanced Audio Codec
Format profile
: LC
Codec ID
: 40
Duration
: 2h 7mn
Bit rate mode
: Constant
Bit rate
: 126 Kbps
Channel(s)
: 2 channels
Channel positions
: Front: L R
Sampling rate
: 44.1 KHz
Compression mode
: Lossy
Stream size
: 115 MiB (66%)


Советуем: Семинары по КОБ-е Москва 2008 - 2010 годы
Просмотров1185
Взят89
Скачан15 раз
Файлов2 файлов
Раздалaasom65
Размер242.94 MB
Добавлен2014-06-29 08:47:20

Список комментариев

Скачать фильмы о дикой природе

|

Скачать торрент фильмы о космосе

|

Исторические документальные фильмы скачать

|

Документальные фильмы о войне

Трехлебов А.В. Нынешнее состояние дел. Фильмы про современные информационные войны. Инфо война против России технологии и методы | Трехлебов А.В. Нынешнее состояние дел. Здесь Глоба И.А. подробно рассказывает о том, что надо не останавливаться. Трекер документальных фильмов, скачать бесплатно, без регистрации через торрент. Документальные фильмы о войне, про космос, о дикой природе, исторические. Док. фильмы которые заставляют задуматься и изменить свое мировоззрение.