Вход
Интересное
Скачать док. фильм "Константин Павлович Петров в Новосибирске. КОБ КПЕ, март 2007."

Константин Павлович Петров в Новосибирске. КОБ КПЕ, март 2007.

Голосов: 12
Постер Константин Павлович Петров в Новосибирске. КОБ КПЕ, март 2007.
Петров Константин Павлович

Президент Академии Управления, Генерал-майор Военно-космических сил, Академик, Заслуженный связист России, Заслуженный испытатель космодрома «Байконур»

Имеет опыт управления большими коллективами людей в решении всесторонних производственных, хозяйственных, военных, научно-исследовательских задач, в том числе и в сложных экстремальных ситуациях. Награждён многими орденами и медалями за службу Родине в Вооружённых Силах СССР. Как русский офицер и учёный, плодотворно работает над вопросами вывода России из затянувшегося кризиса и воплощения на практике идеи торжества справедливости в жизни общества.

_____________________________________
Есть такое видео/диск:
http://www.vseminfo.ru/production/dvd/production_12.html?pics=4
Петров в Новосибирске. Без цензуры!
По первому поиску в поисковиках его не найти! На торренте rutracker.org: Результатов поиска: 0. Кто такие VsEM - Всемирный Союз Евреев и Масонов? -- На диске делают деньги? Выкладываю в сеть:
Часть 1
http://video.yandex.ru/users/dimkaf1/view/27/
http://vkontakte.ru/video5901419_160085015
_____________________________________
D:петров новосибирск март 2007VIDEO_TSVTS_01_3.VOB
General
Complete name : D:петров новосибирск март 2007VIDEO_TSVTS_01_3.VOB
Format : MPEG-PS
File size : 1 024 MiB
Duration : 51mn 17s
Overall bit rate : 2 791 Kbps
Video #224
ID : 224 (0xE0)
Format : MPEG Video
Format version : Version 2
Format profile : Main@Main
Format settings, BVOP : Yes
Format settings, Matrix : Default
Format settings, GOP : M=3, N=15
Duration : 51mn 17s
Bit rate mode : Variable
Bit rate : 2 543 Kbps
Nominal bit rate : 9 641 Kbps
Width : 720 pixels
Height : 576 pixels
Display aspect ratio : 16:9
Frame rate : 25.000 fps
Standard : PAL
Color space : YUV
Chroma subsampling : 4:2:0
Bit depth : 8 bits
Scan type : Interlaced
Scan order : Bottom Field First
Compression mode : Lossy
Bits/(Pixel*Frame) : 0.245
Stream size : 933 MiB (91%)
Audio #189-128
ID : 189 (0xBD)-128 (0x80)
Format : AC-3
Format/Info : Audio Coding 3
Mode extension : CM (complete main)
Muxing mode : DVD-Video
Duration : 51mn 17s
Bit rate mode : Constant
Bit rate : 192 Kbps
Channel(s) : 2 channels
Channel positions : Front: L R
Sampling rate : 48.0 KHz
Bit depth : 16 bits
Compression mode : Lossy
Delay relative to video : -1s 8ms
Stream size : 70.4 MiB (7%)

Скриншоты "Константин Павлович Петров в Новосибирске. КОБ КПЕ, март 2007.":

Скриншот 1 Константин Павлович Петров в Новосибирске. КОБ КПЕ, март 2007.
Просмотров4373
Взят550
Скачан195 раз
Файлов9 файлов
Раздалartur7373888
Размер4.27 GB
Добавлен2011-05-18 02:27:00

Список комментариев
:: Не в сети artur7373888 :: Продвинутый III
2011-05-18 03:50:59
user artur7373888 avatar интересные моменты
8:00
10:00
12:20
14:00
28:40
30:00-32:00
33:40-35:00
38:00
44:00
45:00
50:00

Дополнительные тэги: Горбачев, ГТРК, Делягин, Дольмен, Еврейский, Емельянов, Жданов, Запад, Златоуст, Ивашов, Инглиизм, Ирания, Каббала, Калашников​, Карпов, Киев, Климов, Коловрат, Комитет, Компьютерный, Конкурс

|