Вход
Интересное
Скачать док. фильм "Куда тянет страну Путин и его истинные цели"

Куда тянет страну Путин и его истинные цели

Голосов: 3
Постер Куда тянет страну Путин и его истинные цели
Русские включайте мозги и берегите Путина.
General
Complete name
: F:\Куда тянет страну Путин и его истинные цели..mp4
Format
: MPEG-4
Format profile
: Base Media / Version 2
Codec ID
: mp42
File size
: 229 MiB
Duration
: 1h 28mn
Overall bit rate mode
: Variable
Overall bit rate
: 361 Kbps
Encoded date
: UTC 2013-12-03 06:42:16
Tagged date
: UTC 2013-12-03 06:42:16
gsst
: 0
gstd
: 5312446
gssd
: B4D783FC6HH1401950176615416
gshh
: r3---sn-8vap5-3c2e.googlevideo.com

Video
ID
: 1
Format
: AVC
Format/Info
: Advanced Video Codec
Format profile
: Baseline@L3.0
Format settings, CABAC
: No
Format settings, ReFrames
: 1 frame
Codec ID
: avc1
Codec ID/Info
: Advanced Video Coding
Duration
: 1h 28mn
Bit rate
: 262 Kbps
Maximum bit rate
: 1 241 Kbps
Width
: 480 pixels
Height
: 360 pixels
Display aspect ratio
: 4:3
Frame rate mode
: Constant
Frame rate
: 30.000 fps
Color space
: YUV
Chroma subsampling
: 4:2:0
Bit depth
: 8 bits
Scan type
: Progressive
Bits/(Pixel*Frame)
: 0.051
Stream size
: 166 MiB (73%)
Tagged date
: UTC 2013-12-03 06:44:32

Audio
ID
: 2
Format
: AAC
Format/Info
: Advanced Audio Codec
Format profile
: LC
Codec ID
: 40
Duration
: 1h 28mn
Bit rate mode
: Variable
Bit rate
: 96.0 Kbps
Maximum bit rate
: 103 Kbps
Channel(s)
: 2 channels
Channel positions
: Front: L R
Sampling rate
: 44.1 KHz
Compression mode
: Lossy
Stream size
: 60.8 MiB (27%)
Title
: IsoMedia File Produced by Google, 5-11-2011
Encoded date
: UTC 2013-12-03 06:43:30
Tagged date
: UTC 2013-12-03 06:44:32


Просмотров2664
Взят267
Скачан36 раз
Раздалaasom65
Размер228.60 MB
Добавлен2014-06-05 11:48:22

Список комментариев
Дополнительные тэги: Примаков, Путин, Расизм, Риббентроп, РПЦ, Рябиченко, Сахаров, Севастьянов, Сионизм, Смирнов, Сорокин, СССР, Столыпин, Сыроедение, Тараторин, Тесла, Трансерфинг, Тунгусский, Уинстон, Усатов, Фастфуд

|