Вход
Интересное
Скачать документальное кино "Информация по майдану"

Информация по майдану

Голосов: 0
Постер Информация по майдану
Информация по майдану только документальные факты информация взята с сайта You Tube по ссылкам с сайта www.zarubezhom.com
Майда́н:
Майда́н (перс. میدان — meydan) — по-персидски означает любую открытую площадку, парк или площадь.
Майда́н — у поморов ящик для рыбы или используемый вместо рюкзака (синоним «шарабан»)
Майда́н — в регионе Кавказских Минеральных Вод в народе так называют электричку Кисловодск — Бештау — Минеральные Воды (Железноводск).
Майдан (майҙан; перс. — площадь) — традиционный башкирский праздник. Проводился у тюркских народов
mediainfo
General
Complete name
: F:\Расстрел майдановцами майдановцев.mp4
Format
: MPEG-4
Format profile
: Base Media / Version 2
Codec ID
: mp42
File size
: 105 MiB
Duration
: 9mn 28s
Overall bit rate
: 1 547 Kbps
Encoded date
: UTC 2014-02-24 11:57:54
Tagged date
: UTC 2014-02-24 11:57:54
gsst
: 0
gstd
: 568678
gssd
: B4A7D63A2HH1393476507856716
gshh
: r5---sn-4g57knld.googlevideo.com

Video
ID
: 1
Format
: AVC
Format/Info
: Advanced Video Codec
Format profile
: High@L3.1
Format settings, CABAC
: Yes
Format settings, ReFrames
: 1 frame
Codec ID
: avc1
Codec ID/Info
: Advanced Video Coding
Duration
: 9mn 28s
Bit rate mode
: Variable
Bit rate
: 1 353 Kbps
Maximum bit rate
: 3 340 Kbps
Width
: 960 pixels
Height
: 720 pixels
Display aspect ratio
: 4:3
Frame rate mode
: Constant
Frame rate
: 30.000 fps
Color space
: YUV
Chroma subsampling
: 4:2:0
Bit depth
: 8 bits
Scan type
: Progressive
Bits/(Pixel*Frame)
: 0.065
Stream size
: 91.7 MiB (87%)
Tagged date
: UTC 2014-02-24 11:57:59

Audio
ID
: 2
Format
: AAC
Format/Info
: Advanced Audio Codec
Format profile
: LC
Codec ID
: 40
Duration
: 9mn 28s
Bit rate mode
: Variable
Bit rate
: 192 Kbps
Maximum bit rate
: 202 Kbps
Channel(s)
: 2 channels
Channel positions
: Front: L R
Sampling rate
: 44.1 KHz
Compression mode
: Lossy
Stream size
: 13.0 MiB (12%)
Title
: IsoMedia File Produced by Google, 5-11-2011
Encoded date
: UTC 2014-02-24 11:57:57
Tagged date
: UTC 2014-02-24 11:57:59

Просмотров3860
Взят120
Скачан33 раз
Раздалaasom65
Размер571.49 MB
Добавлен2014-03-22 06:08:09

Список комментариев
Дополнительные тэги: Опьянение, Павлов, ПВО, Перун, Пирамиды, Плясов, Православие, Провокация, Пучков, Расстрел, Римская империя, РСФСР, Саакашвили, Сварог, Семенов, Скляров, Собриология, Социология, Сталин, Стоунхендж, Сычев

|