Вход
Интересное

Лучшие документальные фильмы

Скачать док. фильм "Денис Борисов лекции"

Денис Борисов лекции

Голосов: 0

Постер Денис Борисов лекции
Очень полезные лекции. Остальные лекции на www.Youtube.com по ссылке http://www.youtube.com/channel/UCgGMKF6EFWrB0agBBPt2V3w
программа для скачивания прилагается
General
Complete name
: F:\Downloaded\Borisov\Вся ПРАВДА про АЛКОГОЛЬ и Русских!.mp4
Format
: MPEG-4
Format profile
: Base Media / Version 2
Codec ID
: mp42
File size
: 144 MiB
Duration
: 54mn 56s
Overall bit rate mode
: Variable
Overall bit rate
: 365 Kbps
Encoded date
: UTC 2013-12-10 14:10:04
Tagged date
: UTC 2013-12-10 14:10:04
gsst
: 0
gstd
: 3296536
gssd
: B4D783FC7HH1401240078994829
gshh
: r4---sn-8vap5-3c2e.googlevideo.com

Video
ID
: 1
Format
: AVC
Format/Info
: Advanced Video Codec
Format profile
: Baseline@L3.0
Format settings, CABAC
: No
Format settings, ReFrames
: 1 frame
Codec ID
: avc1
Codec ID/Info
: Advanced Video Coding
Duration
: 54mn 56s
Bit rate
: 267 Kbps
Maximum bit rate
: 702 Kbps
Width
: 640 pixels
Height
: 360 pixels
Display aspect ratio
: 16:9
Frame rate mode
: Constant
Frame rate
: 25.000 fps
Color space
: YUV
Chroma subsampling
: 4:2:0
Bit depth
: 8 bits
Scan type
: Progressive
Bits/(Pixel*Frame)
: 0.046
Stream size
: 105 MiB (73%)
Tagged date
: UTC 2013-12-10 14:11:19

Audio
ID
: 2
Format
: AAC
Format/Info
: Advanced Audio Codec
Format profile
: LC
Codec ID
: 40
Duration
: 54mn 56s
Bit rate mode
: Variable
Bit rate
: 96.0 Kbps
Maximum bit rate
: 105 Kbps
Channel(s)
: 2 channels
Channel positions
: Front: L R
Sampling rate
: 44.1 KHz
Compression mode
: Lossy
Stream size
: 37.7 MiB (26%)
Title
: IsoMedia File Produced by Google, 5-11-2011
Encoded date
: UTC 2013-12-10 14:10:43
Tagged date
: UTC 2013-12-10 14:11:19


Советуем: Семинары по КОБ-е Москва 2008 - 2011 годы
Просмотров2158
Взят153
Скачан12 раз
Файлов3 файлов
Раздалaasom65
Размер275.36 MB
Добавлен2014-05-28 05:34:17

Список комментариев

Скачать фильмы о дикой природе

|

Скачать торрент фильмы о космосе

|

Исторические документальные фильмы скачать

|

Документальные фильмы о войне

Денис Борисов лекции. Док. кино как действуют наркотики. Про алкоголь и как бросить курить. | Денис Борисов лекции. Очень полезные лекции. Остальные лекции на www.Youtube.com по ссылке http://www.youtube.com/channel/UCgGMKF6EFWrB0agBBPt2V3wпрограмма. Документальные фильмы про наркотики вы можете скачать на нашем сайте бесплатно. Наркотики – это бич нашего века. В России 8.5 миллионов употребляют наркотики, а погибают от передозировки