Вход
Интересное

Лучшие документальные фильмы

Скачать док. фильм "Роль музыки в жизни общества"

Роль музыки в жизни общества

Голосов: 0

Постер Роль музыки в жизни общества
Роль музыки в жизни общества.

В нашем фильме мы поговорим о положительных тенденциях в современной музыке, появление которых увеличивает людям шанс измениться к лучшему. Эти тенденции прослеживаются во всех направлениях, в том числе, в рэпе и роке, которые часто выступают как форма протеста против сложившейся в обществе несправедливости. Многие современные коллективы своей задачей ставят помочь людям задуматься над происходящим, чтобы изменить мир к лучшему. Почему в последнее время многие коллективы меняют направление своего творчества с растлевающего на позитивно-укрепляющее?

Мы рассмотрим, какие подводные камни поджидают начинающих исполнителей, почему самые благие устремления оборачиваются довольно тривиальным финалом? Чего не хватает многим коллективам для того, чтобы быть в тренде и не отставать от современного состояния общества? Может ли настоящее творчество быть вне политики? Что такое музыка и в чём её предназначение?

Размер: 1.50 ГБ
Продолжительность: 01:40:25

General
Complete name
: D:\Видео\Видео\Роль музыки в жизни общества.mp4
Format
: MPEG-4
Format profile
: Base Media / Version 2
Codec ID
: mp42
File size
: 1.50 GiB
Duration
: 1h 40mn
Overall bit rate mode
: Variable
Overall bit rate
: 2 142 Kbps
Encoded date
: UTC 2015-05-31 20:20:28
Tagged date
: UTC 2015-05-31 20:20:28
gsst
: 0
gstd
: 6025508
gssd
: B6DC2A944MM1433163162709969
gshh
: r1---sn-xguxaxjvh-uwhe.googlevideo.com

Video
ID
: 1
Format
: AVC
Format/Info
: Advanced Video Codec
Format profile
: High@L3.1
Format settings, CABAC
: Yes
Format settings, ReFrames
: 1 frame
Codec ID
: avc1
Codec ID/Info
: Advanced Video Coding
Duration
: 1h 40mn
Bit rate
: 1 947 Kbps
Maximum bit rate
: 12.1 Mbps
Width
: 1 280 pixels
Height
: 720 pixels
Display aspect ratio
: 16:9
Frame rate mode
: Constant
Frame rate
: 25.000 fps
Color space
: YUV
Chroma subsampling
: 4:2:0
Bit depth
: 8 bits
Scan type
: Progressive
Bits/(Pixel*Frame)
: 0.085
Stream size
: 1.37 GiB (91%)
Tagged date
: UTC 2015-05-31 20:24:27

Audio
ID
: 2
Format
: AAC
Format/Info
: Advanced Audio Codec
Format profile
: LC
Codec ID
: 40
Duration
: 1h 40mn
Bit rate mode
: Variable
Bit rate
: 192 Kbps
Maximum bit rate
: 203 Kbps
Channel(s)
: 2 channels
Channel positions
: Front: L R
Sampling rate
: 44.1 KHz
Compression mode
: Lossy
Stream size
: 138 MiB (9%)
Title
: IsoMedia File Produced by Google, 5-11-2011
Language
: English
Encoded date
: UTC 2015-05-31 20:22:27
Tagged date
: UTC 2015-05-31 20:24:27

Скриншоты "Роль музыки в жизни общества":

Скриншот 1 Роль музыки в жизни обществаСкриншот 2 Роль музыки в жизни обществаСкриншот 3 Роль музыки в жизни обществаСкриншот 4 Роль музыки в жизни общества
Советуем: Антикораническая стратегия заправил библейского проекта
Просмотров2030
Взят273
Скачан35 раз
РаздалЗапад7
Размер1.50 GB
Добавлен2015-06-01 20:55:06

Список комментариев

Скачать фильмы о дикой природе

|

Скачать торрент фильмы о космосе

|

Исторические документальные фильмы скачать

|

Документальные фильмы о войне

Роль музыки в жизни общества. Коб видео Петрова, Ефимова, лекции скачать. Концепция общественной безопасности | Роль музыки в жизни общества. Роль музыки в жизни общества.В нашем фильме мы поговорим. Документальные фильмы КОБ в хорошем качестве вы можете скачать на торрент