Вход
Интересное

Лучшие документальные фильмы

Скачать документальное кино "Военная тайна 23 08 2014"

Военная тайна 23 08 2014

Голосов: 0

Постер Военная тайна 23 08 2014
Зачем США устроили настоящую информационную травлю России? Почему в самой демократичной стране в чернокожих стреляют на поражение а в полицейских участках бьют и пытают а митинги разгоняют тоталитарными методами? Зачем Саакашвили тратит свои деньги на косметологов? Рассекреченые подробности войны. Почему суперразрекламированые новинки армии США не летают и не стреляют.Последняя исповедь японского камикадзе.Электричка-опасность в пути.Гладиаторы древнего Рима.
General
Complete name
: N:\6\РЕН ТВ REN TV\Военная тайна\2014\Voennaya.taina.2014.08.23.SATRip.[www.Riper.AM] 3часа.avi
Format
: AVI
Format/Info
: Audio Video Interleave
Format profile
: OpenDML
File size
: 1.28 GiB
Duration
: 3h 4mn
Overall bit rate
: 998 Kbps
Writing application
: MEncoder SVN-r30881(20100311-gcc4.3.3)
Writing library
: MPlayer

Video
ID
: 0
Format
: MPEG-4 Visual
Format profile
: Advanced Simple@L5
Format settings, BVOP
: 2
Format settings, QPel
: No
Format settings, GMC
: No warppoints
Format settings, Matrix
: Default (H.263)
Codec ID
: XVID
Codec ID/Hint
: XviD
Duration
: 3h 4mn
Bit rate
: 855 Kbps
Width
: 480 pixels
Height
: 360 pixels
Display aspect ratio
: 4:3
Frame rate
: 25.000 fps
Color space
: YUV
Chroma subsampling
: 4:2:0
Bit depth
: 8 bits
Scan type
: Progressive
Compression mode
: Lossy
Bits/(Pixel*Frame)
: 0.198
Stream size
: 1.10 GiB (86%)
Writing library
: XviD 1.2.1 (UTC 2008-12-04)

Audio
ID
: 1
Format
: MPEG Audio
Format version
: Version 1
Format profile
: Layer 3
Mode
: Joint stereo
Mode extension
: MS Stereo
Codec ID
: 55
Codec ID/Hint
: MP3
Duration
: 3h 4mn
Bit rate mode
: Constant
Bit rate
: 128 Kbps
Channel(s)
: 2 channels
Sampling rate
: 44.1 KHz
Compression mode
: Lossy
Delay relative to video
: 40ms
Stream size
: 169 MiB (13%)
Alignment
: Aligned on interleaves
Interleave, duration
: 26 ms (0.65 video frame)
Interleave, preload duration
: 522 ms


Советуем: Семинар №14 - 18 января 2009 года
Просмотров1389
Взят205
Скачан11 раз
Раздалaasom65
Размер1.28 GB
Добавлен2014-08-23 13:05:34

Список комментариев

Скачать фильмы о дикой природе

|

Скачать торрент фильмы о космосе

|

Исторические документальные фильмы скачать

|

Документальные фильмы о войне

Военная тайна 23 08 2014. Фильмы про современные информационные войны. Инфо война против России технологии и методы | Военная тайна 23 08 2014. Зачем США устроили настоящую информационную травлю России? Почему в самой. Трекер документальных фильмов, скачать бесплатно, без регистрации через торрент. Документальные фильмы о войне, про космос, о дикой природе, исторические. Док. фильмы которые заставляют задуматься и изменить свое мировоззрение.