Вход
Интересное

Лучшие документальные фильмы

Скачать документальное кино "Евгений Федоров 24 июля 2014 Познавательное ТВ"

Евгений Федоров 24 июля 2014 Познавательное ТВ

Голосов: 3

Постер Евгений Федоров 24 июля 2014 Познавательное ТВ
General
Complete name
: F:\Евгений Федоров 24 июля 2014 (Познавательное ТВ, Евгений Фёдоров).mp4
Format
: MPEG-4
Format profile
: Base Media
Codec ID
: isom
File size
: 326 MiB
Duration
: 1h 44mn
Overall bit rate
: 436 Kbps
Writing application
: Lavf54.63.104

Video
ID
: 1
Format
: AVC
Format/Info
: Advanced Video Codec
Format profile
: Main@L3.0
Format settings, CABAC
: Yes
Format settings, ReFrames
: 3 frames
Codec ID
: avc1
Codec ID/Info
: Advanced Video Coding
Duration
: 1h 44mn
Bit rate
: 304 Kbps
Width
: 640 pixels
Height
: 360 pixels
Display aspect ratio
: 16:9
Frame rate mode
: Constant
Frame rate
: 25.000 fps
Color space
: YUV
Chroma subsampling
: 4:2:0
Bit depth
: 8 bits
Scan type
: Progressive
Bits/(Pixel*Frame)
: 0.053
Stream size
: 227 MiB (70%)

Audio
ID
: 2
Format
: AAC
Format/Info
: Advanced Audio Codec
Format profile
: LC
Codec ID
: 40
Duration
: 1h 44mn
Bit rate mode
: Constant
Bit rate
: 126 Kbps
Channel(s)
: 2 channels
Channel positions
: Front: L R
Sampling rate
: 44.1 KHz
Compression mode
: Lossy
Stream size
: 93.9 MiB (29%)


Просмотров1294
Взят61
Скачан7 раз
Раздалaasom65
Размер326.17 MB
Добавлен2014-08-01 06:00:05

Список комментариев

Скачать фильмы о дикой природе

|

Скачать торрент фильмы о космосе

|

Исторические документальные фильмы скачать

|

Документальные фильмы о войне

Евгений Федоров 24 июля 2014 Познавательное ТВ. Фильмы про современные информационные войны. Инфо война против России технологии и методы | Евгений Федоров 24 июля 2014 Познавательное ТВ. GeneralComplete name : F:\Евгений Федоров. Трекер документальных фильмов, скачать бесплатно, без регистрации через торрент. Документальные фильмы о войне, про космос, о дикой природе, исторические. Док. фильмы которые заставляют задуматься и изменить свое мировоззрение.