Вход
Интересное

Лучшие документальные фильмы

Скачать документальное кино "Евгений Федоров 17 июня 2014"

Евгений Федоров 17 июня 2014

Голосов: 1

Постер Евгений Федоров 17 июня 2014
Кто хочет учавствовать в национальном освободительном движении зайдите сюда http://rusnod.ru/
Скачан материал отсюда http://poznavatelnoe.tv/
General
Complete name
: F:\Downloaded\Евгений Федоров 17 июня 2014 (Познавательное ТВ, Евгений Фёдоров).mp4
Format
: MPEG-4
Format profile
: Base Media / Version 2
Codec ID
: mp42
File size
: 264 MiB
Duration
: 1h 32mn
Overall bit rate mode
: Variable
Overall bit rate
: 400 Kbps
Encoded date
: UTC 2014-06-17 16:04:59
Tagged date
: UTC 2014-06-17 16:04:59
gsst
: 0
gstd
: 5530621
gssd
: B4D783FC7HH1403267484264274
gshh
: r4---sn-8vap5-3c2e.googlevideo.com

Video
ID
: 1
Format
: AVC
Format/Info
: Advanced Video Codec
Format profile
: Baseline@L3.0
Format settings, CABAC
: No
Format settings, ReFrames
: 1 frame
Format settings, GOP
: M=1, N=60
Codec ID
: avc1
Codec ID/Info
: Advanced Video Coding
Duration
: 1h 32mn
Bit rate
: 301 Kbps
Maximum bit rate
: 810 Kbps
Width
: 640 pixels
Height
: 360 pixels
Display aspect ratio
: 16:9
Frame rate mode
: Constant
Frame rate
: 25.000 fps
Color space
: YUV
Chroma subsampling
: 4:2:0
Bit depth
: 8 bits
Scan type
: Progressive
Bits/(Pixel*Frame)
: 0.052
Stream size
: 199 MiB (75%)
Tagged date
: UTC 2014-06-17 16:05:19

Audio
ID
: 2
Format
: AAC
Format/Info
: Advanced Audio Codec
Format profile
: LC
Codec ID
: 40
Duration
: 1h 32mn
Bit rate mode
: Variable
Bit rate
: 96.0 Kbps
Maximum bit rate
: 101 Kbps
Channel(s)
: 2 channels
Channel positions
: Front: L R
Sampling rate
: 44.1 KHz
Compression mode
: Lossy
Stream size
: 63.3 MiB (24%)
Title
: IsoMedia File Produced by Google, 5-11-2011
Encoded date
: UTC 2014-06-17 16:05:09
Tagged date
: UTC 2014-06-17 16:05:19


Просмотров1373
Взят35
Скачан2 раз
Раздалaasom65
Размер263.58 MB
Добавлен2014-06-20 18:50:15

Список комментариев

Скачать фильмы о дикой природе

|

Скачать торрент фильмы о космосе

|

Исторические документальные фильмы скачать

|

Документальные фильмы о войне

Евгений Федоров 17 июня 2014. Фильмы про современные информационные войны. Инфо война против России технологии и методы | Евгений Федоров 17 июня 2014. Кто хочет учавствовать в национальном освободительном движении зайдите. Трекер документальных фильмов, скачать бесплатно, без регистрации через торрент. Документальные фильмы о войне, про космос, о дикой природе, исторические. Док. фильмы которые заставляют задуматься и изменить свое мировоззрение.