Вход
Интересное
Скачать документальное кино "О запрограмированности на пьянство."

О запрограмированности на пьянство.

Голосов: 3
Постер О запрограмированности на пьянство.
Познавательная лекция о том, как люди становятся наркоманами (в том числе, пьяницами, алкоголиками, курцами).

Научное подробное описание и объяснение механизма формирования этих пороков.

Рассказывает Кирилл Лотенков (г. Екатеринбург, 2011), преподаватель курсов по избавлению от этих и других вредных привычек по методу Геннадия Шичко.


Видео: MPEG4 Video (H264) 480x360 25fps 258kbps [Video]
Аудио: AAC 44100Hz stereo 95kbps [Audio]
Размер: 181 МБ
Продолжительность: 01:11:01

Дополнительная информация:

General
Complete name
:
Format
: MPEG-4
Format profile
: Base Media / Version 2
Codec ID
: mp42
File size
: 181 MiB
Duration
: 1h 11mn
Overall bit rate mode
: Variable
Overall bit rate
: 357 Kbps
Encoded date
: UTC 2014-01-14 15:54:09
Tagged date
: UTC 2014-01-14 15:54:09
gsst
: 0
gstd
: 4261465
gssd
: B4A7D6E02HH1389829495932737
gshh
: r2---sn-n8v7lnez.googlevideo.com

Video
ID
: 1
Format
: AVC
Format/Info
: Advanced Video Codec
Format profile
: Baseline@L2.1
Format settings, CABAC
: No
Format settings, ReFrames
: 1 frame
Codec ID
: avc1
Codec ID/Info
: Advanced Video Coding
Duration
: 1h 11mn
Bit rate
: 258 Kbps
Maximum bit rate
: 544 Kbps
Width
: 480 pixels
Height
: 360 pixels
Display aspect ratio
: 4:3
Frame rate mode
: Constant
Frame rate
: 25.000 fps
Color space
: YUV
Chroma subsampling
: 4:2:0
Bit depth
: 8 bits
Scan type
: Progressive
Bits/(Pixel*Frame)
: 0.060
Stream size
: 131 MiB (72%)
Tagged date
: UTC 2014-01-14 15:54:23

Audio
ID
: 2
Format
: AAC
Format/Info
: Advanced Audio Codec
Format profile
: LC
Codec ID
: 40
Duration
: 1h 11mn
Bit rate mode
: Variable
Bit rate
: 96.0 Kbps
Maximum bit rate
: 103 Kbps
Channel count
: 2 channels
Channel positions
: Front: L R
Sampling rate
: 44.1 KHz
Compression mode
: Lossy
Stream size
: 48.8 MiB (27%)
Title
: IsoMedia File Produced by Google, 5-11-2011
Encoded date
: UTC 2014-01-14 15:54:16
Tagged date
: UTC 2014-01-14 15:54:23

Скриншоты "О запрограмированности на пьянство.":

Скриншот 1 О запрограмированности на пьянство.Скриншот 2 О запрограмированности на пьянство.Скриншот 3 О запрограмированности на пьянство.Скриншот 4 О запрограмированности на пьянство.
Просмотров2538
Взят427
Скачан87 раз
РаздалЗапад7
Размер181.15 MB
Добавлен2014-01-16 21:20:19

Список комментариев
Дополнительные тэги: Миронов, Мифология, Мобиль, Модный, Молоко, Монография, Мутация, Наполеон, Нацизм, Нефть, Ноосфера, Огнестрел, Онищенко, Освенцим, Панк, Педофил, Петров, Платон, Порно, Президент, Пророк

|